Inferno (2016) Telugu Dubbed 720p Bluray X264 Dd5.1 Esubs Rdlinks

Our Popular Content

Duvvada Jagannadham (2017) Telugu(original) 720p WEBHD x264 - RDLinks Arjun Reddy (2017) Uncensored Balloon (2017) Tamil Angel-2018 WebHD Telugu TIGER ZINDA HAI (2017) The.Other.End.of.the.Line.2008 PSV Garuda Vega (2017)

Dennys91

Super Mod
VIP
#1

General

Format : Matroska
Format version : Version 4 / Version 2
File size : 1.35 GiB
Duration : 2 h 1 min
Overall bit rate : 1 589 kb/s
Movie name : Register in
You do not have permission to view link Log in or register now.
for more releases
Encoded date : UTC 2017-07-07 16:56:03
Writing application : mkvmerge v7.9.0 ('Birds') 64bit
Writing library : libebml v1.3.1 + libmatroska v1.4.2

Video

Format : AVC
Format/Info : Advanced Video Codec
Format profile : [email protected]
Format settings, CABAC : Yes
Format settings, ReFrames : 9 frames
Codec ID : V_MPEG4/ISO/AVC
Duration : 2 h 1 min
Bit rate : 1 140 kb/s
Width : 1 280 pixels
Height : 694 pixels
Display aspect ratio : 1.85:1
Frame rate mode : Constant
Frame rate : 23.976 (24000/1001) FPS
Color space : YUV
Chroma subsampling : 4:2:0
Bit depth : 8 bits
Scan type : Progressive
Bits/(Pixel*Frame) : 0.054
Stream size : 991 MiB (72%)

Audio

Format : AC-3
Format/Info : Audio Coding 3
Format settings, Endianness : Big
Codec ID : A_AC3
Duration : 2 h 1 min
Bit rate mode : Constant
Bit rate : 448 kb/s
Channel(s) : 6 channels
Channel positions : Front: L C R, Side: L R, LFE
Sampling rate : 48.0 kHz
Frame rate : 31.250 FPS (1536 spf)
Bit depth : 16 bits
Compression mode : Lossy
Stream size : 390 MiB (28%)
Service kind : Complete Main
Default : Yes
Forced : Yes

Text

Format : UTF-8
Codec ID : S_TEXT/UTF8
Codec ID/Info : UTF-8 Plain Text
Duration : 1 h 55 min
Bit rate : 55 b/s
Count of elements : 1360
Stream size : 46.9 KiB (0%)
Language : English





Audio Only :

[HIDE-REPLY]
Code:
https://www.keeplinks.eu/p32/59605ac332e82
[/HIDE-REPLY]

DOWNLOAD :-
[HIDE-REPLY]
You do not have permission to view link Log in or register now.
[/HIDE-REPLY]



 
Last edited by a moderator: