Logan (2017) 720p Bdrip Org. Multi Audio [hindi+telugu+tamil+english] Ac3 X264 By-rishibhai-rdlinks

Our Popular Content

Duvvada Jagannadham (2017) Telugu(original) 720p WEBHD x264 - RDLinks Arjun Reddy (2017) Uncensored Balloon (2017) Tamil Angel-2018 WebHD Telugu TIGER ZINDA HAI (2017) The.Other.End.of.the.Line.2008 PSV Garuda Vega (2017)

#1


Certificare:-R
Duration:-2h 17min
Genre:-Action, Drama, Sci-Fi
Released:-3 March 2017 (USA)


Plot:-In the near future, a weary Logan cares for an ailing Professor X somewhere on the Mexican border. However, Logan's attempts to hide from the world and his legacy are upended when a young mutant arrives, pursued by dark forces.

Director: James Mangold
Writers: James Mangold (story by), Scott Frank (screenplay)
Stars: Hugh Jackman, Patrick Stewart, Dafne Keen


Code:
General
Complete name                            : [www.rdlinks.com]Logan (2017) 720p BDRip ORG. Multi Audio [Hindi+Telugu+Tamil+English] AC3 x264 By-RishiBhai-RDLinks.mkv
Format                                   : Matroska
Format version                           : Version 4 / Version 2
File size                                : 1.79 GiB
Duration                                 : 2 h 17 min
Overall bit rate                         : 1 864 kb/s
Movie name                               : Encoded By-RishiBhai-RDLinks,For more Exclusive Movies Join us at-www.rdlinks.com
Encoded date                             : UTC 2017-06-16 06:49:12
Writing application                      : Lavf57.57.100
Writing library                          : Lavf57.57.100
ErrorDetectionType                       : Per level 1

Video
ID                                       : 1
Format                                   : AVC
Format/Info                              : Advanced Video Codec
Format profile                           : [email protected]
Format settings, CABAC                   : Yes
Format settings, ReFrames                : 2 frames
Codec ID                                 : V_MPEG4/ISO/AVC
Duration                                 : 2 h 17 min
Bit rate                                 : 1 350 kb/s
Width                                    : 1 280 pixels
Height                                   : 720 pixels
Display aspect ratio                     : 2.40:1
Frame rate mode                          : Constant
Frame rate                               : 23.976 (24000/1001) FPS
Color space                              : YUV
Chroma subsampling                       : 4:2:0
Bit depth                                : 8 bits
Scan type                                : Progressive
Bits/(Pixel*Frame)                       : 0.061
Stream size                              : 1.26 GiB (71%)
Writing library                          : x264 core 148 r2721
Encoding settings                        : cabac=1 / ref=2 / deblock=1:0:0 / analyse=0x1:0x131 / me=hex / subme=7 / psy=1 /

psy_rd=1.00:0.00 / mixed_ref=0 / me_range=16 / chroma_me=1 / trellis=1 / 8x8dct=0 / cqm=0 / deadzone=21,11 / fast_pskip=1 /

chroma_qp_offset=-2 / threads=3 / lookahead_threads=1 / sliced_threads=0 / nr=0 / decimate=1 / interlaced=0 / bluray_compat=0 /

constrained_intra=0 / bframes=3 / b_pyramid=0 / b_adapt=1 / b_bias=0 / direct=0 / weightb=1 / open_gop=0 / weightp=2 / keyint=239 /

keyint_min=23 / scenecut=40 / intra_refresh=0 / rc_lookahead=40 / rc=2pass / mbtree=1 / bitrate=1350 / ratetol=1.0 / qcomp=0.60 /

qpmin=10 / qpmax=69 / qpstep=4 / cplxblur=20.0 / qblur=0.5 / vbv_maxrate=2000 / vbv_bufsize=24000 / nal_hrd=none / filler=0 /

ip_ratio=1.40 / aq=3:1.00
Language                                 : English
Default                                  : Yes
Forced                                   : Yes
DURATION                                 : 02:17:23.325000000

Audio #1
ID                                       : 2
Format                                   : AC-3
Format/Info                              : Audio Coding 3
Format settings, Endianness              : Big
Codec ID                                 : A_AC3
Duration                                 : 2 h 17 min
Bit rate mode                            : Constant
Bit rate                                 : 128 kb/s
Channel(s)                               : 1 channel
Channel positions                        : Front: C
Sampling rate                            : 44.1 kHz
Frame rate                               : 28.711 FPS (1536 spf)
Bit depth                                : 16 bits
Compression mode                         : Lossy
Delay relative to video                  : -48 ms
Stream size                              : 126 MiB (7%)
Writing library                          : Lavc57.66.101 ac3_fixed
Language                                 : Hindi
Service kind                             : Complete Main
Default                                  : No
Forced                                   : No
DURATION                                 : 02:17:23.339000000

Audio #2
ID                                       : 3
Format                                   : AC-3
Format/Info                              : Audio Coding 3
Format settings, Endianness              : Big
Codec ID                                 : A_AC3
Duration                                 : 2 h 17 min
Bit rate mode                            : Constant
Bit rate                                 : 128 kb/s
Channel(s)                               : 1 channel
Channel positions                        : Front: C
Sampling rate                            : 44.1 kHz
Frame rate                               : 28.711 FPS (1536 spf)
Bit depth                                : 16 bits
Compression mode                         : Lossy
Delay relative to video                  : -48 ms
Stream size                              : 126 MiB (7%)
Writing library                          : Lavc57.66.101 ac3_fixed
Language                                 : Telugu
Service kind                             : Complete Main
Default                                  : No
Forced                                   : No
DURATION                                 : 02:17:23.339000000

Audio #3
ID                                       : 4
Format                                   : AC-3
Format/Info                              : Audio Coding 3
Format settings, Endianness              : Big
Codec ID                                 : A_AC3
Duration                                 : 2 h 17 min
Bit rate mode                            : Constant
Bit rate                                 : 128 kb/s
Channel(s)                               : 2 channels
Channel positions                        : Front: L R
Sampling rate                            : 44.1 kHz
Frame rate                               : 28.711 FPS (1536 spf)
Bit depth                                : 16 bits
Compression mode                         : Lossy
Delay relative to video                  : -48 ms
Stream size                              : 126 MiB (7%)
Writing library                          : Lavc57.66.101 ac3_fixed
Language                                 : Tamil
Service kind                             : Complete Main
Default                                  : Yes
Forced                                   : Yes
DURATION                                 : 02:17:23.374000000

Audio #4
ID                                       : 5
Format                                   : AC-3
Format/Info                              : Audio Coding 3
Format settings, Endianness              : Big
Codec ID                                 : A_AC3
Duration                                 : 2 h 17 min
Bit rate mode                            : Constant
Bit rate                                 : 128 kb/s
Channel(s)                               : 1 channel
Channel positions                        : Front: C
Sampling rate                            : 44.1 kHz
Frame rate                               : 28.711 FPS (1536 spf)
Bit depth                                : 16 bits
Compression mode                         : Lossy
Delay relative to video                  : -48 ms
Stream size                              : 126 MiB (7%)
Writing library                          : Lavc57.66.101 ac3_fixed
Language                                 : English
Service kind                             : Complete Main
Default                                  : No
Forced                                   : No
DURATION                                 : 02:17:23.339000000

Text
ID                                       : 6
Format                                   : UTF-8
Codec ID                                 : S_TEXT/UTF8
Codec ID/Info                            : UTF-8 Plain Text
Writing library                          : Lavc57.66.101 srt
Language                                 : English
Default                                  : Yes
Forced                                   : Yes
DURATION                                 : 02:14:45.904000000
Screesnshots:-












Thanks to monu987 for Hindi Audio & Lover for tamil and telugu audio..
***RishiBhai(RDLinks) always try to encode in fixed 720p resolution and taking 1080p source***
 

Attachments