Pelli Chupulu 2016 Untouched Webhd 1080p.rdlinks

Our Popular Content

Duvvada Jagannadham (2017) Telugu(original) 720p WEBHD x264 - RDLinks Arjun Reddy (2017) Uncensored Balloon (2017) Tamil Angel-2018 WebHD Telugu TIGER ZINDA HAI (2017) The.Other.End.of.the.Line.2008 PSV Garuda Vega (2017)

#98



General

Format : MPEG-4
Format profile : Base Media / Version 2
Codec ID : mp42 (mp42/isom)
File size : 2.78 GiB
Duration : 1 h 58 min
Overall bit rate mode : Variable
Overall bit rate : 3 357 kb/s
Encoded date : UTC 2017-06-14 17:43:35
Tagged date : UTC 2017-06-14 19:42:09

Video

Format : AVC
Format/Info : Advanced Video Codec
Format profile : [email protected]
Format settings, CABAC : Yes
Format settings, ReFrames : 1 frame
Codec ID : avc1
Codec ID/Info : Advanced Video Coding
Duration : 1 h 58 min
Bit rate : 3 203 kb/s
Width : 1 914 pixels
Height : 820 pixels
Display aspect ratio : 2.35:1
Frame rate mode : Variable
Frame rate : 22.277 FPS
Minimum frame rate : 4.167 FPS
Maximum frame rate : 25.000 FPS
Original frame rate : 25.000 FPS
Color space : YUV
Chroma subsampling : 4:2:0
Bit depth : 8 bits
Scan type : Progressive
Bits/(Pixel*Frame) : 0.092
Stream size : 2.65 GiB (95%)
Writing library : x264 core 148 r2694bm 3b70645

Audio

Format : AAC
Format/Info : Advanced Audio Codec
Format profile : LC
Codec ID : 40
Duration : 1 h 58 min
Bit rate mode : Variable
Bit rate : 152 kb/s
Maximum bit rate : 213 kb/s
Channel(s) : 2 channels
Channel positions : Front: L R
Sampling rate : 44.1 kHz
Frame rate : 43.066 FPS (1024 spf)
Compression mode : Lossy
Stream size : 129 MiB (5%)


You do not have permission to view link Log in or register now.

You do not have permission to view link Log in or register now.

You do not have permission to view link Log in or register now.

You do not have permission to view link Log in or register now.

You do not have permission to view link Log in or register now.


DOWNLOAD :-

[HIDE-REPLY]
You do not have permission to view link Log in or register now.
Thanks